#TITLE:Super Lovely;
#SUBTITLE:;
#ARTIST:Earbreaker;
#TITLETRANSLIT:;
#SUBTITLETRANSLIT:;
#ARTISTTRANSLIT:;
#CREDIT:;
#BANNER:Super Lovely.bn.PNG;
#BACKGROUND:Super Lovely.PNG;
#LYRICSPATH:;
#CDTITLE:!cdtitle.png;
#MUSIC:13. Super lovely.mp3;
#OFFSET:1.047;
#SAMPLESTART:57.452;
#SAMPLELENGTH:17.000;
#SELECTABLE:YES;
#BPMS:0.000=170.000;
#STOPS:;
#BGCHANGES:;
// cache tags:
#FIRSTBEAT:4.000;
#LASTBEAT:344.000;
#SONGFILENAME:Songs/Music V.I.P ^_^/Super Lovely (Dimentio)/super lovely.sm;
#HASMUSIC:1;
#HASBANNER:1;
#MUSICLENGTH:130.821;
// end cache tags

//---------------dance-single - ----------------
#NOTES:
     dance-single:
     :
     Hard:
     12:
     1.000,1.000,1.000,0.405,1.000,1080.000,254.000,53.000,0.000,11.000:
0000
0000
0000
0000
,
1001
0100
0010
0000
0001
0010
0001
0000
1000
0100
0011
0000
1000
0010
1000
0100
,
1001
0010
0000
0000
0001
0010
1000
0010
0100
0010
1000
0010
0100
0010
1000
0010
,
1001
0100
0010
0001
1100
0000
0010
0000
1001
0010
0100
1000
0011
0100
0010
1000
,
0011
0100
0010
1000
0101
0010
0001
0100
0011
1000
0100
0010
1001
0000
0100
0000
,
1001
0010
0100
1000
0110
0000
0001
0000
1010
0100
1000
0100
0011
0000
0001
0000
,
1010
0100
0010
1000
0101
0010
0100
1000
0011
0100
0010
1000
0101
0010
0100
0000
,
1001
0100
0010
0001
1100
0000
0010
0000
0011
0100
0010
1000
0101
0010
0100
1000
,
0110
1000
0001
1000
0110
0000
0001
0000
1010
0100
0001
0010
0101
0000
1000
0000
,
1100
0010
0001
0100
1000
0010
1000
0100
0010
0001
0100
0010
1000
0000
0100
0010
,
0001
0010
0100
1000
0001
0100
0010
1000
0100
0010
0101
1000
0110
0001
1100
0000
,
0011
0000
0000
0000
2000
3000
0000
0000
0210
0300
0000
0000
2000
3000
0000
0000
0201
0300
0000
0000
0020
0030
0000
0000
1000
0000
0000
0000
0002
0003
0000
0000
,
1000
0000
0000
0000
0020
0030
0000
0000
1000
0000
0000
0000
0200
0300
0000
0000
0001
0000
0000
0000
2000
3000
0000
0000
0102
0003
0000
0000
0020
0030
0000
0000
,
1200
0300
0000
0000
0020
0030
0000
0000
0201
0300
0000
0000
0020
0030
0000
0000
1200
0300
0000
0000
0002
0003
0000
0000
1000
0000
0000
0000
0020
0030
0000
0000
,
1000
0100
1000
0001
1000
0010
1000
0001
,
2010
3000
0000
0000
0001
0000
0000
0000
0210
0300
0000
0000
2000
3000
0000
0000
0201
0300
0000
0000
0020
0030
0000
0000
1000
0000
0000
0000
0002
0003
0000
0000
,
1000
0000
0000
0000
0020
0030
0000
0000
1000
0000
0000
0000
0200
0300
0000
0000
0001
0000
0000
0000
2000
3000
0000
0000
0102
0003
0000
0000
0020
0030
0000
0000
,
0201
0300
0000
0000
2000
3000
0000
0000
0210
0300
0000
0000
0001
0000
0000
0000
2001
3000
0000
0000
0200
0300
0000
0000
1020
0030
0000
0000
0002
0003
0000
0000
,
1000
0000
0000
0000
0020
0030
0000
0000
1000
0000
0000
0000
0001
0000
0000
0000
1000
0000
0000
0000
0010
0000
0000
0000
1000
0000
0000
0000
0001
0000
0000
0000
,
2110
0001
3100
0010
1001
0000
0010
0001
1000
0001
0100
0010
1001
0000
0010
0001
,
1000
0010
1000
0100
0011
0000
0100
0010
1000
0010
1000
0100
0011
0000
0100
0010
,
1000
0100
0001
1000
0110
0000
1000
0100
1000
0100
0001
1000
0110
0000
1000
0100
,
0010
1000
0001
0100
1001
0000
0010
1000
0100
1000
0001
0010
1001
0000
0100
1000
,
0112
0003
0000
0000
0000
0010
0100
1000
,
0100
0000
0000
0001
0000
0000
0100
0000
0000
0000
0000
0000
0000
0000
1010
0000
,
0101
1000
0100
1000
0100
0010
0000
0001
,
0000
0000
0020
0000
0000
0000
0000
0030
1000
0010
0100
0010
1000
0010
0100
0010
,
1001
0010
0100
1000
0010
0100
0010
1000
0001
0010
0100
1000
0001
0100
0010
1000
,
0011
0100
0010
0100
0011
1000
0010
1000
0101
1000
0011
0100
1000
0010
0101
0010
,
0100
0001
1000
0010
0102
1003
0010
1000
0001
1000
0101
0010
1001
0100
0011
0100
,
1001
0100
0011
1000
0100
1000
0110
0001
0010
0100
1001
0010
0001
0010
1100
0001
,
1000
0001
1010
0100
0010
0001
1100
0001
0010
0100
1000
0010
0100
0001
0010
0001
,
1100
0010
0100
0010
1100
0010
1001
0100
0010
0001
1100
0001
0010
0100
1001
0010
,
1000
0010
1000
0100
1002
0013
0100
0010
1000
0001
0010
0001
0100
0010
1001
0010
,
1100
0010
0100
1000
0011
1000
0100
0010
1001
0100
0010
0100
1010
0001
1100
0001
,
1010
0100
0010
0001
1100
0001
1010
0001
0010
0100
1001
0010
1000
0010
1100
0010
,
1001
0100
0010
0100
0011
1000
0010
1000
0101
1000
0011
0100
1000
0010
0101
0010
,
0100
0001
1000
0010
0102
1003
0010
1000
0001
1000
0101
0010
1001
0100
0011
0100
,
1001
0100
0011
1000
0100
1000
0110
0001
0010
0100
1001
0010
0001
0010
1100
0001
,
1000
0001
1010
0100
0010
0001
1100
0001
0010
0100
1000
0010
0100
0001
0010
0001
,
1100
0010
0100
0010
1100
0010
1001
0100
0010
0001
1100
0001
0010
0100
1001
0010
,
1000
0010
1000
0100
1002
0013
0100
0010
1000
0001
0010
0001
0100
0010
0001
0010
,
1100
0000
0000
0100
0000
0001
0000
0001
,
0000
0000
0100
0000
0200
0000
0000
0000
0000
0300
1100
0011
1100
0000
1100
0000
,
1010
0001
0100
0010
1001
0000
0010
0001
0000
0001
0100
0010
1001
0000
0010
0001
,
0000
0001
1000
0010
0101
0000
0010
0001
0000
0001
1000
0010
0101
0000
0010
0001
,
0000
0010
1000
0100
0011
0000
0100
0010
0000
0010
1000
0100
0011
0000
0100
0010
,
0000
0100
0001
1000
0110
0000
1000
0100
0000
0100
0001
1000
0110
0000
1000
0100
,
0000
0001
0100
0010
1001
0000
0010
0001
0000
0001
0100
0010
1001
0000
0010
0001
,
0000
0001
1000
0010
0101
0000
0010
0001
0000
0001
1000
0010
0101
0000
0010
0001
,
0000
0010
1000
0100
0011
0000
0100
0010
0000
0010
1000
0100
0011
0000
0100
0010
,
0000
0100
0001
1000
0110
0000
1000
0100
0000
0100
0001
1000
0110
0000
1001
0100
,
2012
0003
3000
0000
0101
0000
1000
0000
0010
0000
0001
0000
1010
0000
0100
0000
,
1011
0000
0000
0100
0011
0000
1010
0000
0100
0000
0001
0000
0110
0000
1000
0000
,
0111
1000
0110
0011
0001
0000
1100
0010
,
1101
0100
0011
0100
0000
0100
1010
0101
,
2012
0003
3000
0000
1001
0000
0010
0000
0001
0000
0100
0000
1000
0000
0100
0000
,
1110
0000
0000
0010
1001
0000
0110
0000
1000
0000
0010
0000
0101
0000
1000
0000
,
0111
1000
0100
1001
0101
0010
1100
0001
,
1100
0001
0010
0100
1000
0010
0100
0010
1000
0100
0010
0001
0100
0001
0010
0100
,
1001
0010
0100
1000
0010
0100
0010
1000
0001
0100
0010
1000
0001
0010
0100
1000
,
0011
0100
1000
0100
0011
1000
0010
1000
0101
1000
0011
0100
1000
0010
0101
0010
,
0100
0001
1000
0010
0102
1003
0010
1000
0001
1000
0101
0010
1001
0100
0011
0100
,
1001
0100
0011
1000
0100
1000
0110
0001
0010
0100
1001
0010
0001
0010
1100
0001
,
1000
0001
1010
0100
0010
0001
1100
0001
0010
0100
1000
0010
0100
0001
0010
0001
,
1100
0010
0100
0010
1100
0010
1001
0100
0010
0001
1100
0001
0010
0100
1001
0010
,
1000
0010
1000
0100
1002
0013
0100
0010
1000
0001
0010
0001
0100
0010
1001
0010
,
1100
0010
0100
1000
0011
1000
0100
0010
1001
0100
0010
0100
1010
0001
1100
0001
,
1010
0100
0010
0001
1100
0001
1010
0001
0010
0100
1001
0010
1000
0010
1100
0010
,
1001
0100
0010
0100
0011
1000
0010
1000
0101
1000
0011
0100
1000
0010
0101
0010
,
0100
0001
1000
0010
0102
1003
0010
1000
0001
1000
0101
0010
1001
0100
0011
0100
,
1001
0100
0011
1000
0100
1000
0110
0001
0010
0100
1001
0010
0001
0010
1100
0001
,
1000
0001
1010
0100
0010
0001
1100
0001
0010
0100
1000
0010
0100
0001
0010
0001
,
1100
0010
0100
0010
1100
0010
1001
0100
0010
0001
1100
0001
0010
0100
1001
0010
,
1000
0010
1000
0100
1002
0013
0100
0010
1000
0001
0010
0001
0100
0010
0001
0010
,
1100
0000
0000
0100
0000
0001
0000
0001
,
0000
0000
0100
0000
0100
0010
1000
0001
0100
0010
1000
0001
0100
0001
1000
0010
,
1101
0010
0000
0000
0100
0010
1000
0010
0100
0010
1000
0010
0100
0010
1000
0010
,
1001
0100
0010
0001
1100
0000
0010
0000
1001
0010
0100
1000
0011
0100
0010
1000
,
0011
0100
0010
1000
0101
0010
0001
0100
0011
1000
0100
0010
1001
0000
0100
0000
,
1001
0010
0100
1000
0110
0000
0001
0000
1010
0100
1000
0100
0011
0000
0001
0000
,
1010
0100
0010
1000
0101
0010
0100
1000
0011
0100
0010
1000
0101
0010
0100
0000
,
1001
0100
0010
0001
1100
0000
0010
0000
0011
0100
0010
1000
0101
0010
0100
1000
,
0110
1000
0001
1000
0110
0000
0001
0000
1010
0100
0001
0010
0101
0000
1000
0000
,
1100
0010
0001
0100
1001
0010
1000
0100
1010
0001
0100
0010
1001
0000
0100
0010
,
1001
0010
0100
1000
0011
0100
0010
1000
0101
0010
0100
1000
0101
0010
0100
0000
,
1111
0000
0000
0000
;
